<?xml version="1.0" standalone="no"?>
<!DOCTYPE svg PUBLIC "-//W3C//DTD SVG 1.1//EN" "http://www.w3.org/Graphics/SVG/1.1/DTD/svg11.dtd" >
<svg xmlns="http://www.w3.org/2000/svg" xmlns:xlink="http://www.w3.org/1999/xlink" version="1.1">
<metadata></metadata>
<defs>
<font id="alegreya_sansregular" horiz-adv-x="983" >
<font-face units-per-em="2048" ascent="1638" descent="-410" />
<missing-glyph horiz-adv-x="337" />
<glyph unicode="&#xa8;I" horiz-adv-x="548" d="M55 1614q0 42 25 67t67 25q40 0 63 -23t23 -63q0 -43 -25 -69.5t-67 -26.5q-41 0 -63.5 24t-22.5 66zM190 0l11 395l-11 918h168l-10 -903l8 -410h-166zM317 1614q0 42 25.5 67t67.5 25q40 0 63 -23t23 -63q0 -43 -25.5 -69.5t-67.5 -26.5q-41 0 -63.5 24t-22.5 66z" />
<glyph unicode="&#xa8;O" horiz-adv-x="1300" d="M78 645q0 328 153 504t437 176q269 0 413 -166.5t144 -476.5q0 -335 -153.5 -516.5t-436.5 -181.5q-267 0 -412 172t-145 489zM246 666q0 -276 99.5 -410.5t299.5 -134.5q410 0 410 532q0 272 -100 404.5t-302 132.5q-407 0 -407 -524zM406 1614q0 42 25 67t67 25 q40 0 63 -23t23 -63q0 -43 -25 -69.5t-67 -26.5q-41 0 -63.5 24t-22.5 66zM727 1614q0 42 25 67t67 25q40 0 63 -23t23 -63q0 -43 -25 -69.5t-67 -26.5q-41 0 -63.5 24t-22.5 66z" />
<glyph unicode="&#xb4;Y" horiz-adv-x="1081" d="M31 1313h176l26 -74l287 -590h17l313 586l31 78h174l-457 -846l-2 -84l8 -383h-166l11 383l-3 90zM356 1556q211 103 394 211l18 -4l41 -96l-4 -16q-176 -82 -399 -176l-21 8z" />
<glyph unicode="&#xa8;i" horiz-adv-x="487" d="M27 1241q0 42 25 67t67 25q40 0 63 -23t23 -63q0 -43 -25 -69.5t-67 -26.5q-41 0 -63.5 24t-22.5 66zM162 0l10 397l-8 531l162 14l-13 -530l11 -412h-162zM289 1241q0 42 25 67t67 25q40 0 63 -23t23 -63q0 -43 -25 -69.5t-67 -26.5q-41 0 -63.5 24t-22.5 66z" />
<glyph unicode="&#xa8;o" horiz-adv-x="1005" d="M86 457q0 236 112 366.5t314 130.5q192 0 297.5 -123.5t105.5 -349.5q0 -236 -111.5 -366.5t-314.5 -130.5q-192 0 -297.5 123.5t-105.5 349.5zM240 494q0 -196 66.5 -295t193.5 -99q130 0 197 86.5t67 257.5q0 194 -66.5 295t-193.5 101q-129 0 -196.5 -88.5 t-67.5 -257.5zM256 1241q0 42 25 67t67 25q40 0 63 -23t23 -63q0 -43 -25 -69.5t-67 -26.5q-41 0 -63.5 24t-22.5 66zM578 1241q0 42 25 67t67 25q40 0 63 -23t23 -63q0 -43 -25 -69.5t-67 -26.5q-41 0 -63.5 24t-22.5 66z" />
<glyph unicode="&#xb4;y" horiz-adv-x="872" d="M-45 -289l6 21q155 29 247.5 90.5t156.5 177.5l-347 934l160 10l31 -121l223 -641h14l226 625l30 131h150l-332 -903q-67 -183 -176 -281t-295 -145h-18q-51 51 -76 102zM291 1130q197 160 336 297l18 -2l62 -86l-5 -16q-212 -165 -348 -260l-18 2z" />
<glyph unicode="&#xfb01;" horiz-adv-x="1132" d="M74 840l10 96h137v125q0 196 93.5 288.5t293.5 92.5q121 0 264 -41l-20 -135l-21 -6q-132 63 -241 63q-111 0 -163 -55.5t-52 -175.5l-2 -156h504l96 12l12 -6l-12 -534l12 -408h-164l13 395l-9 432h-452l-6 -417l10 -410h-162l12 397l-4 430h-141z" />
<glyph unicode="&#xfb02;" horiz-adv-x="1165" d="M74 840l10 96h137l-2 147q-1 183 100.5 278t290.5 95q115 0 258 -31l127 13l-12 -1026l10 -412h-162l13 399l-8 893q-122 45 -236 45q-224 0 -227 -229l-2 -172h247l7 -12l-11 -97h-243l-4 -421l10 -406h-162l10 397l-4 430h-139z" />
<glyph horiz-adv-x="0" />
<glyph horiz-adv-x="682" />
<glyph unicode=" "  horiz-adv-x="337" />
<glyph unicode="&#x09;" horiz-adv-x="337" />
<glyph unicode="&#xa0;" horiz-adv-x="337" />
<glyph unicode="!" horiz-adv-x="524" d="M147 84q0 43 27 69.5t72 26.5q41 0 64.5 -24.5t23.5 -67.5q0 -44 -25.5 -71t-68.5 -27q-44 0 -68.5 25t-24.5 69zM201 455v870l16 21l125 6l18 -21l-45 -885l-96 -10z" />
<glyph unicode="&#x22;" horiz-adv-x="573" d="M106 922l11 376l125 11l12 -15l-49 -374l-84 -13zM342 922l8 376l125 11l12 -15l-49 -374l-84 -13z" />
<glyph unicode="#" horiz-adv-x="1056" d="M41 420l8 90h223l54 238h-201l-12 12l8 88h227l74 328h94l10 -17l-69 -311h223l74 328h94l12 -17l-69 -311h213l12 -12l-10 -88h-238l-53 -238h217l10 -12l-8 -88h-242l-78 -344h-94l-10 14l74 330h-226l-75 -344h-97l-10 14l74 330h-197zM381 510h225l53 238h-225z" />
<glyph unicode="$" horiz-adv-x="888" d="M98 57l17 144l18 6q96 -91 234 -109l30 365q-50 21 -80.5 36t-71.5 41.5t-64 52.5t-39.5 65t-16.5 85q0 113 86 192t231 89l23 291h80l18 -17l-22 -274q103 -10 196 -47l-24 -131l-23 -6q-74 57 -158 73l-28 -352q59 -25 98 -46t81.5 -54t63.5 -77t21 -99 q0 -110 -83.5 -193.5t-227.5 -97.5l-21 -258h-80l-16 14l18 242q-144 7 -260 65zM258 760q0 -51 39.5 -88t112.5 -70l24 316q-81 -9 -128.5 -55.5t-47.5 -102.5zM465 98q76 13 123 60t47 104q0 53 -36.5 89t-106.5 69z" />
<glyph unicode="%" horiz-adv-x="1687" d="M82 950q0 180 80 275.5t231 95.5q140 0 214.5 -91t74.5 -261q0 -182 -79 -277.5t-230 -95.5q-140 0 -215.5 91.5t-75.5 262.5zM197 961q0 -252 186 -252t186 243q0 250 -188 250q-184 0 -184 -241zM283 -121l964 1510l72 -41l12 -29l-966 -1505l-72 41zM1004 344 q0 181 80 276t231 95q139 0 214 -90.5t75 -259.5q0 -183 -79.5 -278t-230.5 -95q-140 0 -215 91t-75 261zM1118 354q0 -250 187 -250q186 0 186 242q0 250 -188 250q-185 0 -185 -242z" />
<glyph unicode="&#x26;" horiz-adv-x="1421" d="M123 346q0 225 235 346v10q-75 72 -109 143t-34 156q0 151 101.5 237.5t289.5 86.5q168 0 322 -74l-39 -121h-23q-125 76 -264 76q-120 0 -183 -56.5t-63 -158.5q0 -64 30 -117.5t103 -115.5l482 -430q30 74 30 168q0 123 -57 237h-143l-10 12l12 107h586l12 -14 l-15 -105h-315l-4 -12q45 -119 45 -242q0 -132 -49 -233l270 -240v-12q-44 -47 -92 -72l-10 2l-240 215q-141 -153 -405 -153q-207 0 -335 97t-128 263zM262 371q0 -124 93.5 -195.5t246.5 -71.5q192 0 299 113l-467 418q-172 -96 -172 -264z" />
<glyph unicode="'" horiz-adv-x="339" d="M106 922l11 376l125 11l12 -15l-49 -374l-84 -13z" />
<glyph unicode="(" horiz-adv-x="589" d="M168 524q2 317 79.5 509.5t258.5 322.5h14l60 -53v-17q-150 -119 -213.5 -294.5t-65.5 -465.5q2 -284 65.5 -455.5t213.5 -289.5v-17l-60 -53h-14q-181 130 -258.5 318t-79.5 495z" />
<glyph unicode=")" horiz-adv-x="589" d="M10 -219q150 118 213.5 293t65.5 467q-2 284 -65.5 454.5t-213.5 290.5v17l60 53h16q180 -130 257 -318t79 -495q-2 -317 -79 -509.5t-257 -322.5h-16l-60 53v17z" />
<glyph unicode="*" horiz-adv-x="765" d="M74 1212q0 80 16 125l14 4l201 -122l-10 -68l-14 -8zM123 918v12l170 172l61 -33l-2 -18l-116 -191q-39 12 -113 58zM332 1483q58 18 123 18l6 -12l-45 -246l-70 -8l-10 14zM393 1059l49 45l21 -4l125 -185q-24 -45 -84 -90l-17 2zM440 1204l9 19l204 73q45 -74 56 -110 l-11 -10l-227 -33z" />
<glyph unicode="+" d="M63 498l11 102h360v363l103 10l12 -15v-358h358l13 -12l-11 -103h-360v-362l-103 -8l-12 12v358h-358z" />
<glyph unicode="," horiz-adv-x="468" d="M98 -168q113 87 113 180q0 55 -64 97v16q56 39 113 53q86 -55 86 -137q0 -134 -192 -274l-56 51v14z" />
<glyph unicode="-" horiz-adv-x="628" d="M59 442v103l496 69l14 -14v-102l-493 -72z" />
<glyph unicode="." horiz-adv-x="468" d="M141 84q0 43 26.5 69.5t70.5 26.5q41 0 65.5 -24.5t24.5 -67.5q0 -44 -26.5 -71t-70.5 -27q-43 0 -66.5 25t-23.5 69z" />
<glyph unicode="/" horiz-adv-x="587" d="M45 -215l420 1604h113l12 -19l-420 -1601h-113z" />
<glyph unicode="0" horiz-adv-x="1081" d="M96 496q0 258 118.5 397t338.5 139q208 0 321 -134t113 -382q0 -254 -118.5 -392t-336.5 -138q-209 0 -322.5 132.5t-113.5 377.5zM225 508q0 -188 79.5 -283.5t236.5 -95.5t237 93.5t80 275.5q0 190 -81 287.5t-238 97.5q-155 0 -234.5 -94.5t-79.5 -280.5z" />
<glyph unicode="1" horiz-adv-x="704" d="M23 776v129l413 123l25 -16l-10 -588l8 -424h-164l10 403l-2 439l-264 -74z" />
<glyph unicode="2" horiz-adv-x="931" d="M96 4v102l285 310q111 125 162 205t51 141q0 56 -41.5 91.5t-114.5 35.5t-146 -37t-132 -102h-21l-26 124q170 154 358 154q123 0 202 -62.5t79 -164.5q0 -83 -57 -183.5t-183 -246.5l-207 -236l4 -8h379l172 12l12 -10l-22 -137l-209 8h-459l-76 -4z" />
<glyph unicode="3" horiz-adv-x="843" d="M63 903q154 127 328 127q139 0 225 -72t86 -188q0 -88 -51.5 -169.5t-152.5 -133.5v-8q123 -29 186.5 -99t63.5 -174q0 -172 -129 -278.5t-338 -106.5q-89 0 -201 19l-10 139l12 10q96 -41 209 -41q136 0 219.5 65t83.5 173q0 97 -68.5 152t-195.5 59h-121l-10 12l4 113 l90 2q88 0 167 67.5t79 163.5q0 73 -49.5 116.5t-129.5 43.5q-117 0 -254 -121h-18z" />
<glyph unicode="4" horiz-adv-x="985" d="M55 170v104l514 746h150l-4 -735h192l13 -17l-11 -114l-188 4h-4l6 -334l-10 -12l-123 -11l-10 13l4 344h-383l-135 -4zM199 285h387v538h-15z" />
<glyph unicode="5" horiz-adv-x="856" d="M63 -37l15 14q115 -49 223 -49q139 0 221 72t82 190q0 92 -62.5 147.5t-203.5 82.5l-174 33l-14 14l10 534l26 23l109 -4h276l189 8l8 -12l-16 -129l-13 -13l-149 13h-303l-8 -320l129 -26q190 -40 270 -118.5t80 -205.5q0 -185 -137 -301.5t-353 -116.5q-82 0 -192 21z " />
<glyph unicode="6" horiz-adv-x="962" d="M94 432q0 260 158.5 464.5t447.5 320.5h11l127 -74v-17q-246 -86 -384.5 -204.5t-185.5 -282.5l13 -14q124 90 266 90q153 0 240 -94.5t87 -251.5q0 -171 -107 -278t-292 -107q-189 0 -285 116t-96 332zM242 432q0 -168 59.5 -252t185.5 -84q114 0 178 64.5t64 185.5 q0 120 -59 184t-168 64q-136 0 -258 -107z" />
<glyph unicode="7" horiz-adv-x="854" d="M45 887l10 139l185 -6h469l86 4l2 -121l-398 -868l-92 -244l-131 37l-10 27l477 1030h-432l-156 -17z" />
<glyph unicode="8" horiz-adv-x="970" d="M98 293q0 61 20 111.5t57 88t75 63.5t88 50v10q-86 45 -139.5 111t-53.5 172q0 145 98.5 229t258.5 84q149 0 234 -76t85 -210q0 -104 -53.5 -172t-144.5 -121v-10q40 -19 67.5 -34.5t62 -42.5t55.5 -56t35.5 -72t14.5 -94q0 -155 -108 -246.5t-289 -91.5 q-168 0 -265.5 85t-97.5 222zM238 309q0 -93 64 -150t173 -57q114 0 180 58.5t66 152.5q0 29 -8.5 55.5t-18.5 44.5t-34.5 38t-38.5 30.5t-50.5 27.5t-49.5 22.5t-56 23.5q-49 -18 -85 -36.5t-70.5 -47t-53 -69.5t-18.5 -93zM283 903q0 -46 16 -82t49 -62.5t65 -43.5t81 -37 q92 39 144 91.5t52 141.5q0 86 -52 134.5t-144 48.5q-97 0 -154 -51.5t-57 -139.5z" />
<glyph unicode="9" horiz-adv-x="962" d="M88 653q0 171 107 278t292 107q189 0 285 -116t96 -332q0 -260 -158.5 -464.5t-447.5 -320.5h-10l-127 74v17q246 86 384 204.5t185 282.5l-12 14q-124 -90 -266 -90q-153 0 -240.5 94.5t-87.5 251.5zM233 676q0 -120 59.5 -184t168.5 -64q139 0 258 107l2 55 q0 168 -60 252t-186 84q-114 0 -178 -64.5t-64 -185.5z" />
<glyph unicode=":" horiz-adv-x="468" d="M133 84q0 43 26 69.5t70 26.5q41 0 65.5 -24.5t24.5 -67.5q0 -44 -26 -71t-70 -27q-43 0 -66.5 25t-23.5 69zM133 635q0 44 26 71t70 27q41 0 65.5 -24.5t24.5 -67.5q0 -44 -26 -71t-70 -27q-43 0 -66.5 24.5t-23.5 67.5z" />
<glyph unicode=";" horiz-adv-x="468" d="M90 -168q113 87 113 180q0 55 -64 97v16q56 39 113 53q86 -55 86 -137q0 -133 -193 -274l-55 51v14zM133 635q0 44 26 71t70 27q41 0 65.5 -24.5t24.5 -67.5q0 -44 -26 -71t-70 -27q-43 0 -66.5 24.5t-23.5 67.5z" />
<glyph unicode="&#x3c;" d="M74 475v133l14 19l780 321l37 -94l-8 -14l-696 -289v-12l700 -271l-24 -94l-19 -10z" />
<glyph unicode="=" d="M63 326l11 102h833l13 -12l-11 -103h-833zM63 668l11 102h833l13 -12l-11 -103h-833z" />
<glyph unicode="&#x3e;" d="M78 854l37 94l780 -321l14 -19v-133l-784 -311l-19 10l-24 94l700 271v12l-696 289z" />
<glyph unicode="?" horiz-adv-x="677" d="M123 1253l31 90l20 11q246 -15 379 -98.5t133 -223.5q0 -80 -44 -151t-128 -123l-170 -111l-4 -8l12 -197l-114 -14l-15 14l-16 236l10 20l197 117q125 73 125 193q0 205 -404 229zM205 84q0 43 26 69.5t70 26.5q41 0 65.5 -24.5t24.5 -67.5q0 -44 -26 -71t-70 -27 q-43 0 -66.5 25t-23.5 69z" />
<glyph unicode="@" horiz-adv-x="1689" d="M74 383q0 254 106.5 452.5t303.5 310t452 111.5q314 0 502 -176.5t188 -468.5q0 -288 -180 -448t-514 -172l59 424h-20q-156 -267 -330 -432h-31q-155 91 -155 325q0 87 19 171.5t59 163.5t96.5 142.5t137 107.5t175.5 58h10l131 -47l95 47l20 -8l-102 -719l-4 -112 q200 25 310.5 153.5t110.5 339.5q0 250 -160 398.5t-433 144.5q-217 -2 -384.5 -97t-258.5 -263.5t-91 -382.5q0 -333 213.5 -523t573.5 -190l4 -17l-49 -82q-255 3 -448 98t-299.5 273.5t-106.5 417.5zM592 348q0 -72 10.5 -118t24 -61t28.5 -15q17 0 55.5 37t89 103.5 t114 179.5t120.5 245l2 12l4 51l-129 45q-98 0 -171.5 -65.5t-110.5 -173.5t-37 -240z" />
<glyph unicode="A" horiz-adv-x="1183" d="M29 0l481 1313h190l439 -1313h-168l-31 131l-74 225l-295 6l-266 -6l-80 -217l-32 -139h-164zM356 496l230 -4l235 4l-213 647h-14z" />
<glyph unicode="B" horiz-adv-x="1099" d="M190 0l11 395l-11 918l365 2q183 0 283 -81.5t100 -238.5q0 -111 -51 -191t-146 -120q279 -56 279 -317q0 -375 -539 -375q-179 0 -288 8h-3zM348 410l6 -275q79 -6 152 -6q168 0 258 63t90 183q0 201 -252 229l-252 -2zM352 739l226 -6q192 45 192 244q0 106 -59 154.5 t-189 48.5h-166z" />
<glyph unicode="C" horiz-adv-x="1064" d="M78 645q0 326 151.5 502t429.5 176q207 0 359 -98l-33 -150l-18 -4q-137 115 -316 115q-195 0 -299 -134t-104 -393q0 -260 104 -397t295 -137q188 0 342 125l21 -10l-15 -156q-179 -98 -362 -98q-265 0 -410 171t-145 488z" />
<glyph unicode="D" horiz-adv-x="1323" d="M190 0l11 395l-11 918h3l473 8q280 0 429.5 -160t149.5 -459q0 -345 -162 -529.5t-465 -184.5q-199 0 -425 12h-3zM348 410l6 -273q144 -12 291 -12q209 0 320.5 136t111.5 407q0 516 -424 516q-129 0 -297 -8z" />
<glyph unicode="E" horiz-adv-x="987" d="M190 0l11 395l-11 918h740l8 -17l-12 -127l-310 7l-260 -5l-4 -430l246 -4l217 6l12 -14l-14 -127l-229 4l-234 -2l-2 -194l6 -273l260 -2l316 8l10 -16l-12 -127h-738z" />
<glyph unicode="F" horiz-adv-x="888" d="M190 0l11 395l-11 918h699l12 -17l-14 -131l-301 11l-230 -5l-4 -456l221 -4l213 6l13 -17l-15 -125l-227 7l-207 -2l-2 -170l8 -410h-166z" />
<glyph unicode="G" horiz-adv-x="1228" d="M78 631q0 337 166 514.5t473 177.5q208 0 385 -92l-33 -156l-20 -4q-98 61 -181.5 88t-175.5 27q-444 0 -444 -549q0 -264 104 -388t320 -124q103 0 266 49l4 154l-2 186l154 12l-4 -176l8 -287q-249 -77 -434 -77q-293 0 -439.5 166t-146.5 479z" />
<glyph unicode="H" horiz-adv-x="1398" d="M190 0l11 395l-11 918h168l-6 -578l344 -6l353 6l-9 578h168l-8 -903l6 -410h-166l13 395l-2 197l-369 6l-332 -6l-2 -182l8 -410h-166z" />
<glyph unicode="I" horiz-adv-x="548" d="M190 0l11 395l-11 918h168l-10 -903l8 -410h-166z" />
<glyph unicode="J" horiz-adv-x="634" d="M12 1192l11 121h421l-8 -879l4 -192q0 -156 -78 -257.5t-270 -193.5l-63 92v21q142 76 201 149.5t59 186.5v178l-8 762l-252 -2z" />
<glyph unicode="K" horiz-adv-x="1118" d="M188 0l11 395l-11 918h168l-10 -903l8 -410h-166zM377 686v12l438 500l80 115h186l-530 -617q282 -364 567 -661l-2 -21q-64 -18 -155 -32l-19 10q-330 374 -565 694z" />
<glyph unicode="L" horiz-adv-x="851" d="M184 0l11 395l-11 918h168l-10 -903l6 -273h486l12 -14l-15 -123h-647z" />
<glyph unicode="M" horiz-adv-x="1615" d="M123 0l137 1313h186l68 -201l285 -747h12l299 759l68 189h184l129 -1313h-148l-30 399l-70 654h-14l-365 -901h-135l-346 901h-16l-70 -641l-35 -412h-139z" />
<glyph unicode="N" horiz-adv-x="1398" d="M190 0l11 389l-6 924h172l675 -1051h15l-2 1043l155 12l-12 -932l4 -385h-172l-678 1051h-12l-2 -619l6 -432h-154z" />
<glyph unicode="O" horiz-adv-x="1300" d="M78 645q0 328 153 504t437 176q269 0 413 -166.5t144 -476.5q0 -335 -153.5 -516.5t-436.5 -181.5q-267 0 -412 172t-145 489zM246 666q0 -276 99.5 -410.5t299.5 -134.5q410 0 410 532q0 272 -100 404.5t-302 132.5q-407 0 -407 -524z" />
<glyph unicode="P" horiz-adv-x="1064" d="M190 0l11 395l-11 918l402 2q192 0 296.5 -99.5t104.5 -285.5q0 -219 -129.5 -344t-359.5 -125h-156v-51l8 -410h-166zM350 598l215 -4q128 20 194 101.5t66 219.5q0 256 -270 265l-199 -6z" />
<glyph unicode="Q" horiz-adv-x="1308" d="M78 645q0 328 153 504t437 176q269 0 413 -167.5t144 -481.5q0 -263 -100 -434t-287 -230q297 -208 657 -274l6 -21q-37 -70 -76 -104l-14 -6q-411 108 -723 379l-49 -2q-271 0 -416 172t-145 489zM246 659q0 -538 403 -538q199 0 302.5 135t103.5 406q0 528 -404 528 q-204 0 -304.5 -131.5t-100.5 -399.5z" />
<glyph unicode="R" horiz-adv-x="1136" d="M190 0l11 395l-11 918l402 2q193 0 298 -97t105 -278q0 -136 -71 -243t-199 -167q131 -216 340 -491l-2 -21q-74 -27 -152 -36l-22 14q-177 267 -301 491h-240v-77l8 -410h-166zM350 627l246 -6q229 66 229 305q0 245 -270 254l-199 -6z" />
<glyph unicode="S" horiz-adv-x="966" d="M86 78l20 168l23 10q71 -69 158.5 -103t167.5 -34q118 0 190 66t72 155q0 56 -33 100.5t-85.5 76.5t-116.5 61.5t-128 63.5t-116.5 74.5t-85.5 102.5t-33 139q0 155 120 260t308 105q143 0 293 -61l-27 -158l-29 -8q-123 94 -258 94q-113 0 -180 -65t-67 -148 q0 -53 33 -96t86 -74.5t117 -61.5t128 -65t117 -76t86 -103t33 -139q0 -157 -123.5 -266.5t-317.5 -109.5q-188 0 -352 92z" />
<glyph unicode="T" horiz-adv-x="1003" d="M45 1186l12 127h891l13 -17l-13 -127l-229 13h-133l-6 -772l6 -410h-166l12 395l-10 787h-133l-234 -13z" />
<glyph unicode="U" horiz-adv-x="1282" d="M152 479l2 178l-2 656h161l-6 -813q-1 -184 82.5 -277.5t249.5 -93.5q167 0 252 88t84 262l-8 834h163l-2 -668l-2 -147v-18q0 -230 -126 -360q-132 -134 -373 -134q-231 0 -355 128q-120 124 -120 350v15z" />
<glyph unicode="V" horiz-adv-x="1155" d="M31 1313h168l30 -133l334 -1014h12l369 1005l33 142h164l-482 -1313h-190z" />
<glyph unicode="W" horiz-adv-x="1828" d="M43 1313h164l22 -127l320 -1004h14l283 799l-111 332h168l31 -142l323 -989h13l356 996l31 135h155l-471 -1313h-170l-256 762h-14l-270 -762h-170z" />
<glyph unicode="X" horiz-adv-x="1206" d="M47 0l445 664l-429 649h199l53 -105l283 -420l285 422l53 103h178l-416 -629l449 -684h-199l-57 106l-303 449l-314 -459l-53 -96h-174z" />
<glyph unicode="Y" horiz-adv-x="1081" d="M31 1313h176l26 -74l287 -590h17l313 586l31 78h174l-455 -842l-2 -88l6 -383h-166l13 383l-2 88z" />
<glyph unicode="Z" horiz-adv-x="1081" d="M63 -6v121l738 1063h-506l-197 -15l-10 13l12 139l795 -2l100 2v-123l-735 -1059h545l194 14l9 -12l-15 -139l-237 4h-576z" />
<glyph unicode="[" horiz-adv-x="589" d="M201 -244l8 774l-8 775l366 20l11 -12v-78l-244 -23v-1366l244 -22v-78l-11 -10z" />
<glyph unicode="\" horiz-adv-x="587" d="M12 1370l13 19h110l420 -1604l-10 -16h-115z" />
<glyph unicode="]" horiz-adv-x="589" d="M14 -176l242 24v1366l-242 21v80l11 10l364 -20l-6 -775l6 -774l-364 -20l-11 10v78z" />
<glyph unicode="^" horiz-adv-x="868" d="M41 266l324 731l16 11h135l311 -734l-12 -16l-94 -22l-270 649h-13l-286 -645l-17 -11z" />
<glyph unicode="_" horiz-adv-x="921" d="M-31 -274l11 94h960l12 -13l-10 -96h-960z" />
<glyph unicode="`" horiz-adv-x="796" d="M190 1339l62 86l18 2q155 -149 336 -297l-45 -65l-18 -2q-136 95 -348 260z" />
<glyph unicode="a" horiz-adv-x="946" d="M86 242q0 91 48 144t142 75l332 78l2 133q0 81 -42 123.5t-119 42.5q-132 0 -289 -136l-17 9l-20 116q171 127 350 127q133 0 210 -65t77 -180q0 -36 -12.5 -253t-12.5 -253q0 -44 14.5 -62t49.5 -18q29 0 69 12l17 -14l-17 -92q-63 -36 -116 -41q-64 6 -101.5 45 t-40.5 106h-14q-109 -112 -219 -153q-137 0 -214 68.5t-77 187.5zM231 264q0 -67 38 -105t102 -38q112 0 229 145l6 168l-297 -72q-40 -11 -59 -33t-19 -65z" />
<glyph unicode="b" horiz-adv-x="1048" d="M170 -6l14 399l-12 1030l162 15l-6 -629h12q69 57 126.5 88t131.5 51q178 0 271.5 -117.5t93.5 -332.5q0 -246 -119.5 -380t-331.5 -134q-99 0 -201 45l-112 -52zM324 412l6 -244q100 -66 196 -66q134 0 210 96q74 92 73 267v14q-3 161 -61 248.5t-164 87.5 q-65 0 -126.5 -34.5t-131.5 -110.5z" />
<glyph unicode="c" horiz-adv-x="788" d="M86 463q0 226 111.5 358.5t304.5 132.5q139 0 252 -55l-29 -141l-18 -6q-104 69 -211 69q-120 0 -188 -92.5t-68 -257.5t70.5 -260.5t195.5 -95.5q117 0 229 69l19 -10l-19 -137q-123 -53 -250 -53q-186 0 -292.5 128t-106.5 351z" />
<glyph unicode="d" horiz-adv-x="1056" d="M84 467q0 232 120 359.5t335 127.5q93 0 180 -20l-4 489l162 15l-13 -1026l4 -211q2 -43 15 -60.5t45 -17.5t69 12l17 -14l-15 -92q-63 -36 -116 -41q-62 6 -99 43.5t-45 99.5h-14q-62 -54 -111 -85.5t-112 -55.5q-203 0 -310.5 124t-107.5 353zM236 481 q3 -169 71.5 -261.5t186.5 -92.5q116 0 225 125l4 147l-4 389q-113 52 -201 52q-133 0 -209 -92q-73 -89 -73 -254v-13z" />
<glyph unicode="e" horiz-adv-x="925" d="M86 463q0 226 119 357.5t321 131.5q153 0 238.5 -93t85.5 -259q0 -44 -4 -94l-35 -27l-571 -2v-6q0 -169 71 -262.5t209 -93.5q141 0 275 92l18 -10l-16 -138q-147 -75 -285 -75q-200 0 -313 128.5t-113 350.5zM250 586l450 12l5 25q0 107 -52.5 161t-140.5 54 q-104 0 -172 -65.5t-90 -186.5z" />
<glyph unicode="f" horiz-adv-x="620" d="M74 840l10 96h139l-2 164q-1 165 86.5 253.5t249.5 88.5q70 0 160 -19l-12 -127l-13 -10q-73 37 -149 37q-80 0 -123.5 -50t-44.5 -149l-2 -188h245l7 -12l-11 -97h-243l-4 -415l10 -412h-162l12 399l-4 428h-141z" />
<glyph unicode="g" horiz-adv-x="997" d="M113 -127q50 100 180 178v10q-154 47 -154 164q44 72 125 125v8q-133 82 -133 263q0 153 99.5 240t265.5 87q109 0 184 -37q139 25 297 70l16 -12v-111q-72 -22 -188 -43l-4 -8q45 -71 45 -174q0 -149 -99 -237.5t-270 -88.5q-64 0 -127 17q-34 -27 -46.5 -43.5 t-12.5 -36.5q0 -31 33.5 -50t87 -29t118.5 -18.5t130 -23t118.5 -37t87 -66t33.5 -104.5q0 -130 -127.5 -220.5t-312.5 -90.5q-164 0 -255 74.5t-91 193.5zM256 -143q0 -60 58 -99t163 -39q118 0 198.5 47.5t80.5 118.5q0 21 -8.5 39t-21 30.5t-36 23t-43.5 17t-53.5 13.5 t-56.5 10.5t-62 9t-61 9.5q-79 -47 -118.5 -90t-39.5 -90zM276 627q0 -98 54.5 -153.5t154.5 -55.5q102 0 158.5 57.5t56.5 159.5q0 98 -53 151.5t-153 53.5q-103 0 -160.5 -55.5t-57.5 -157.5z" />
<glyph unicode="h" horiz-adv-x="1064" d="M172 0l10 399l-8 1024l162 15l-8 -633h12q128 113 260 145q154 0 234 -72q79 -70 79 -198v-6l-4 -266l6 -408h-163l12 637v7q0 78 -40 124q-42 48 -120 47q-137 0 -276 -145l-4 -258l10 -412h-162z" />
<glyph unicode="i" horiz-adv-x="487" d="M154 1262q0 43 26 69.5t70 26.5q41 0 65.5 -24.5t24.5 -65.5q0 -46 -26 -73.5t-70 -27.5q-43 0 -66.5 25.5t-23.5 69.5zM162 0l10 397l-8 531l162 14l-13 -530l11 -412h-162z" />
<glyph unicode="j" horiz-adv-x="542" d="M10 842l10 94h193l152 6l6 -4l-13 -526l9 -373q0 -160 -63.5 -257t-219.5 -179l-61 73v19q108 65 150 138.5t42 197.5l4 366l-8 430h-188zM164 1262q0 43 26 69.5t70 26.5q41 0 65.5 -24.5t24.5 -65.5q0 -46 -26 -73.5t-70 -27.5q-43 0 -66.5 25.5t-23.5 69.5z" />
<glyph unicode="k" horiz-adv-x="933" d="M172 0l10 399l-8 1024l162 15l-12 -1026l10 -412h-162zM362 494v14l293 346l56 84h182l-369 -430q130 -173 394 -479v-19q-31 -9 -146 -28l-20 8q-222 263 -390 504z" />
<glyph unicode="l" horiz-adv-x="505" d="M172 0l12 399l-10 1024l162 15l-12 -1026l10 -412h-162z" />
<glyph unicode="m" horiz-adv-x="1630" d="M162 0l10 397l-8 531l155 14l-2 -137h15q124 112 258 145q233 0 293 -155h12q126 115 279 155q154 0 234 -72q78 -70 77 -198v-6l-2 -266l6 -408h-164l12 637v8q1 79 -39 123q-42 48 -122 47q-132 0 -273 -141l-4 -266l8 -408h-164l11 637v8q0 78 -39 123q-41 47 -121 47 q-133 0 -277 -147l-2 -256l9 -412h-162z" />
<glyph unicode="n" horiz-adv-x="1054" d="M162 0l10 397l-8 531l155 14l-2 -137h13q128 113 260 145q155 0 235 -72q78 -70 78 -198v-6l-4 -266l8 -408h-164l11 637v8q0 78 -39 123q-41 47 -121 47q-135 0 -277 -145l-2 -258l9 -412h-162z" />
<glyph unicode="o" horiz-adv-x="1005" d="M86 457q0 236 112 366.5t316 130.5q191 0 296 -124t105 -349q0 -237 -111 -367t-315 -130q-192 0 -297.5 123.5t-105.5 349.5zM240 494q0 -196 66.5 -295t193.5 -99q130 0 197 86.5t67 257.5q0 194 -66.5 295t-193.5 101q-129 0 -196.5 -88.5t-67.5 -257.5z" />
<glyph unicode="p" horiz-adv-x="1036" d="M162 -379l12 776l-12 531l157 14l-2 -133h13q70 58 128 89t130 50q179 0 271.5 -117.5t92.5 -332.5q0 -247 -119.5 -380.5t-336.5 -133.5q-90 0 -179 18l5 -381h-160zM313 412l2 -256q102 -54 201 -54q133 0 210 96q73 92 73 267v14q-3 161 -61 248.5t-165 87.5 q-124 0 -258 -145z" />
<glyph unicode="q" horiz-adv-x="1036" d="M84 461q0 239 119 366t332 127q120 0 245 -36l80 32l17 -10l-13 -532l10 -787h-159l6 451v39h-16q-104 -83 -211 -121q-198 0 -304 124t-106 347zM236 475q3 -165 69 -256.5t180 -91.5q119 0 236 125l2 139l-4 391q-112 56 -203 56q-132 0 -208 -92q-72 -88 -72 -257v-14 z" />
<glyph unicode="r" horiz-adv-x="661" d="M162 0l12 397l-10 531l155 14l-2 -192h13q109 190 262 190q25 0 53 -4v-158l-18 -6q-36 10 -74 10q-68 0 -126 -54t-112 -173l-2 -143l11 -412h-162z" />
<glyph unicode="s" horiz-adv-x="757" d="M66 51l20 139l18 13q57 -49 124 -76t126 -27q76 0 123 42.5t47 99.5q0 38 -23.5 68t-61.5 51t-83.5 41t-91 44t-83.5 54t-61.5 76.5t-23.5 105.5q0 119 87.5 194.5t236.5 75.5q118 0 225 -45l-22 -133l-25 -6q-103 68 -197 68q-69 0 -112 -39.5t-43 -94.5q0 -51 44 -88.5 t106.5 -64.5t125 -58t106.5 -87t44 -134q0 -119 -89 -202.5t-245 -83.5q-144 0 -272 67z" />
<glyph unicode="t" horiz-adv-x="653" d="M51 840l10 96h125v151l142 62l16 -14l-4 -199h278l9 -12l-11 -97h-276l-10 -555v-5q0 -77 30 -109q30 -33 99 -33t147 41l19 -12l-17 -107q-111 -51 -205 -59q-117 23 -168 86t-51 184l6 145l-2 424h-129z" />
<glyph unicode="u" horiz-adv-x="1046" d="M150 928l163 14l-12 -639v-8q1 -78 39 -123q40 -47 119 -47q126 0 254 125v678l155 14l-12 -741q0 -42 14.5 -60t47.5 -18q31 0 71 12l15 -14l-15 -92q-62 -36 -117 -41q-62 6 -97.5 43t-43.5 100h-16q-124 -112 -254 -143q-151 0 -230 72q-77 70 -77 197v7l2 260z" />
<glyph unicode="v" horiz-adv-x="870" d="M43 934l152 10l26 -125l203 -657h10l240 649l33 127h145l-344 -938h-174z" />
<glyph unicode="w" horiz-adv-x="1384" d="M43 934l150 10l22 -121l172 -647h10l199 639l33 123h159l23 -115l172 -647h10l201 639l29 123h143l-309 -938h-156l-194 727h-15l-227 -727h-160z" />
<glyph unicode="x" horiz-adv-x="890" d="M47 0l301 477l-299 455l174 12l39 -88l195 -285l178 283l47 84h152l-293 -459l313 -471l-172 -16l-45 96l-201 297l-196 -305l-41 -80h-152z" />
<glyph unicode="y" horiz-adv-x="872" d="M-45 -289l4 21q155 29 247.5 90t158.5 178l-347 934l158 10l31 -121l223 -641h14l228 625l30 131h150l-334 -903q-66 -183 -174.5 -281t-296.5 -145h-16q-51 51 -76 102z" />
<glyph unicode="z" horiz-adv-x="843" d="M68 -4v98l526 731h-354l-146 -16l-12 14l14 119l168 -4h420l78 2l4 -98l-524 -727h370l154 14l10 -14l-14 -119l-189 4h-409z" />
<glyph unicode="{" horiz-adv-x="589" d="M92 492v83q86 17 126 61t40 118q0 41 -20.5 167t-20.5 189q0 114 60 172.5t176 58.5q45 0 106 -14l8 -14l-16 -88q-48 10 -76 10q-127 0 -127 -150q0 -51 21.5 -170.5t21.5 -164.5q0 -152 -137 -211v-9q137 -59 137 -208q0 -46 -21.5 -165.5t-21.5 -170.5q0 -78 31 -115 t96 -37q28 0 76 10l16 -88l-8 -14q-52 -12 -106 -12q-116 0 -176 57.5t-60 171.5q0 63 20.5 188t20.5 168q0 151 -166 177z" />
<glyph unicode="|" horiz-adv-x="643" d="M256 -520v1100l2 1044l117 8l10 -10l-2 -1032v-1120l-113 -7z" />
<glyph unicode="}" horiz-adv-x="589" d="M25 -244l14 88q48 -10 76 -10q127 0 127 152q0 51 -20.5 170t-20.5 163q0 152 135 211v9q-135 59 -135 209q0 46 20.5 165.5t20.5 171.5q0 78 -31 115t-96 37q-28 0 -76 -10l-14 86l8 14q46 14 104 14q236 0 236 -231q0 -63 -20.5 -188t-20.5 -166q0 -149 166 -178v-84 q-166 -29 -166 -179q0 -41 20.5 -167t20.5 -189q0 -229 -236 -229q-55 0 -104 12z" />
<glyph unicode="~" d="M102 477v19l150 149l20 8q46 -6 210.5 -53t199.5 -47q9 0 18.5 4t18 9t22 16.5t22.5 20t28 26t30 28.5h17l45 -55v-18l-150 -152l-20 -4q-51 5 -213 51.5t-195 46.5q-11 0 -21.5 -4t-26 -16.5t-24.5 -20.5t-33 -30.5t-34 -32.5h-19z" />
<glyph unicode="&#xa1;" horiz-adv-x="524" d="M168 -383l45 885l96 10l19 -18v-871l-17 -20l-125 -6zM195 860q0 44 25.5 71t68.5 27q44 0 68 -25t24 -69q0 -43 -26.5 -69.5t-71.5 -26.5q-41 0 -64.5 24.5t-23.5 67.5z" />
<glyph unicode="&#xa2;" horiz-adv-x="784" d="M80 545q0 217 98.5 348t267.5 143l23 299h80l16 -16l-22 -285q111 -15 198 -69l-24 -105l-19 -2q-75 51 -161 66l-60 -740h12q121 0 242 72l17 -8l-15 -98q-122 -73 -264 -76l-27 -318h-77l-17 15l25 313q-137 31 -215 153t-78 308zM207 557q0 -136 45.5 -226.5 t130.5 -125.5l55 719q-108 -17 -169.5 -114t-61.5 -253z" />
<glyph unicode="&#xa3;" horiz-adv-x="851" d="M49 12l10 84q146 30 146 219v281h-146l-8 12l10 78h144v197q0 160 86.5 245.5t247.5 85.5q100 0 221 -34l-10 -125l-11 -11q-111 66 -211 66q-188 0 -188 -207v-217h260l8 -10l-8 -80h-262v-266q0 -140 -82 -207v-6h336l186 14l8 -14l-10 -121l-205 4h-512z" />
<glyph unicode="&#xa4;" horiz-adv-x="890" d="M57 1022l2 16l68 74h18l131 -139q71 55 162 55q87 0 158 -51l129 137l18 2l72 -72v-18l-137 -129q55 -70 55 -164q0 -92 -53 -160l139 -127l2 -18l-71 -74l-17 2l-129 138q-75 -58 -166 -58q-84 0 -157 56l-129 -140h-17l-76 72l2 16l138 129q-56 72 -56 164q0 86 54 160 zM240 733q0 -86 57 -142t141 -56q87 0 144 56t57 142q0 84 -57.5 141.5t-143.5 57.5q-83 0 -140.5 -58t-57.5 -141z" />
<glyph unicode="&#xa5;" horiz-adv-x="985" d="M43 258l6 72h381v22l-90 168h-289l-8 10l6 72h246l-223 416h145l23 -57l249 -451h11l270 446l29 62h143l-244 -416h244l8 -8l-6 -74h-295l-94 -160v-30h387l8 -11l-6 -71h-391l4 -248h-133l6 248h-379z" />
<glyph unicode="&#xa6;" horiz-adv-x="643" d="M256 313l113 15l14 -19v-839l-113 -7l-14 17v833zM256 762v862l119 8l10 -10l-2 -858l-113 -14z" />
<glyph unicode="&#xa7;" horiz-adv-x="860" d="M72 -141l20 139l19 12q119 -110 249 -110q84 0 135.5 44.5t51.5 102.5q0 37 -25 72.5t-65 65.5t-88.5 61t-97.5 65.5t-89 72.5t-65 88.5t-25 107.5q0 83 51.5 156t139.5 118q-97 90 -97 193q0 114 94.5 195t237.5 81q120 0 225 -43l-22 -139l-23 -6q-110 77 -204 77 q-74 0 -122 -44t-48 -99q0 -42 33.5 -82.5t84 -72.5t109.5 -72t109.5 -80t84 -98t33.5 -123q0 -84 -50.5 -156t-139.5 -115q98 -91 98 -198q0 -115 -97 -197t-245 -82q-65 0 -139.5 18t-132.5 48zM229 608q0 -26 12 -52t28.5 -45.5t47 -44t53.5 -39.5t63.5 -41.5t62.5 -41.5 q145 63 145 164q0 28 -12 55t-27 46.5t-47 46t-52.5 40.5t-63.5 42.5t-62 41.5q-148 -70 -148 -172z" />
<glyph unicode="&#xa8;" horiz-adv-x="796" d="M150 1241q0 42 25 67t67 25q40 0 63 -23t23 -63q0 -43 -25 -69.5t-67 -26.5q-41 0 -63.5 24t-22.5 66zM471 1241q0 42 25 67t67 25q40 0 63 -23t23 -63q0 -43 -25 -69.5t-67 -26.5q-41 0 -63.5 24t-22.5 66z" />
<glyph unicode="&#xa9;" horiz-adv-x="1402" d="M94 600q0 282 166 453.5t440 171.5q273 0 439 -171.5t166 -453.5t-166 -453.5t-439 -171.5q-274 0 -440 171.5t-166 453.5zM164 600q0 -251 146.5 -403t389.5 -152q240 0 388.5 152.5t148.5 402.5t-148.5 402.5t-388.5 152.5q-243 0 -389.5 -152t-146.5 -403zM399 602 q0 168 86.5 259t245.5 91q101 0 193 -47l-25 -92l-10 -4q-68 47 -162 47q-209 0 -209 -244q0 -127 53 -192.5t156 -65.5q91 0 174 47l12 -4l-10 -92q-86 -47 -184 -47q-157 0 -238.5 88.5t-81.5 255.5z" />
<glyph unicode="&#xaa;" horiz-adv-x="655" d="M70 862q0 128 133 152l207 39l2 75q0 97 -97 97q-79 0 -186 -76l-12 4l-19 96q121 80 242 80q100 0 153.5 -45.5t53.5 -128.5q0 -20 -6 -156.5t-6 -152.5q0 -55 32 -55q25 0 39 12l12 -8l-16 -82q-39 -31 -86 -31q-44 0 -67 22t-33 76h-4q-76 -82 -154 -100 q-89 3 -138.5 51t-49.5 131zM201 874q0 -40 22.5 -65t61.5 -25q60 0 118 74l3 123l-144 -33q-61 -12 -61 -74z" />
<glyph unicode="&#xab;" horiz-adv-x="815" d="M41 442v33l297 356l80 -45l2 -20l-254 -305l254 -305l-2 -19l-80 -45zM381 442v33l297 356l80 -45l2 -20l-254 -305l254 -305l-2 -19l-80 -45z" />
<glyph unicode="&#xac;" d="M59 498l9 102h788l12 -14v-463l-102 -8l-12 12v358h-684z" />
<glyph unicode="&#xad;" horiz-adv-x="628" d="M59 442v103l496 69l14 -14v-102l-493 -72z" />
<glyph unicode="&#xae;" horiz-adv-x="899" d="M78 1067q0 167 103 269t270 102t268.5 -102t101.5 -269q0 -168 -101.5 -270.5t-268.5 -102.5t-270 103t-103 270zM133 1067q0 -145 87.5 -232t232.5 -87q143 0 230 87.5t87 231.5t-87 230.5t-230 86.5q-145 0 -232.5 -86.5t-87.5 -230.5zM315 883l2 118l-2 277h150 q133 0 133 -117q0 -37 -21 -69t-59 -52q37 -59 107 -143l-2 -8q-27 -8 -72 -12l-8 6q-45 64 -88 139h-70v-14l4 -125h-74zM387 1083l74 -4q61 21 61 76q0 65 -80 68l-53 -2z" />
<glyph unicode="&#xaf;" horiz-adv-x="796" d="M98 1204l11 94h579l12 -10l-10 -96h-579z" />
<glyph unicode="&#xb0;" horiz-adv-x="600" d="M41 1071q0 107 75.5 180.5t184.5 73.5q108 0 183 -73.5t75 -180.5t-75.5 -181.5t-182.5 -74.5q-109 0 -184.5 74.5t-75.5 181.5zM123 1071q0 -72 52 -123t124 -51q74 0 126 51t52 123t-52 123t-126 51q-72 0 -124 -51t-52 -123z" />
<glyph unicode="&#xb1;" d="M63 -176l11 102h833l13 -12l-11 -100h-833zM63 498l11 102h360v363l103 10l12 -15v-358h358l13 -12l-9 -103h-362v-362l-100 -8l-15 12v358h-358z" />
<glyph unicode="&#xb2;" horiz-adv-x="714" d="M80 666v86l201 233q84 103 118.5 156t34.5 96q0 39 -27 64.5t-77 25.5q-51 0 -105 -27.5t-96 -76.5h-18l-23 108q132 113 274 113q95 0 157.5 -47.5t62.5 -128.5q0 -59 -40.5 -130t-133.5 -186l-138 -174l4 -4h252l131 6l7 -12l-17 -113l-164 7h-340l-55 -3z" />
<glyph unicode="&#xb3;" horiz-adv-x="630" d="M61 1366q106 80 230 80q100 0 160.5 -48.5t60.5 -127.5q0 -55 -32 -106.5t-95 -80.5v-8q76 -20 116 -67.5t40 -118.5q0 -106 -89.5 -171t-234.5 -65q-75 0 -139 15l-10 102l12 10q73 -18 139 -18q85 0 132.5 34.5t47.5 94.5q0 55 -36.5 85.5t-106.5 31.5h-88l-8 10l2 96 h61q52 0 98 38t46 91q0 42 -28.5 66t-78.5 24q-71 0 -162 -63h-14z" />
<glyph unicode="&#xb4;" horiz-adv-x="796" d="M193 1130q191 156 335 297l19 -2l61 -86l-4 -16q-212 -165 -348 -260l-18 2z" />
<glyph unicode="&#xb5;" horiz-adv-x="1046" d="M150 -379l6 776l-6 531l153 14v-678q9 -66 50 -102.5t110 -36.5q122 0 250 125v678l155 14l-10 -731q-3 -102 57 -102q31 0 70 24l16 -12l-20 -92q-51 -39 -119 -39q-58 0 -92 31.5t-47 101.5h-16q-124 -109 -265 -135q-80 0 -139 32v-399h-153z" />
<glyph unicode="&#xb6;" horiz-adv-x="993" d="M78 907q0 193 116 299.5t332 106.5h402l12 -17l-12 -112h-152l-6 -809l2 -111q0 -136 -75.5 -236t-250.5 -186l-47 74v21q116 71 167.5 145.5t51.5 171.5v94l-2 838h-120q-119 -11 -183.5 -85t-64.5 -200q0 -125 70.5 -211.5t203.5 -126.5l-51 -92q-189 37 -291 148 t-102 288z" />
<glyph unicode="&#xb7;" horiz-adv-x="468" d="M141 500q0 44 26.5 71t70.5 27q41 0 65.5 -24.5t24.5 -67.5q0 -44 -26.5 -71t-70.5 -27q-43 0 -66.5 24.5t-23.5 67.5z" />
<glyph unicode="&#xb8;" horiz-adv-x="796" d="M244 -332l14 82l10 2q29 -32 55 -47.5t62 -15.5q28 0 46 14.5t18 40.5q0 17 -10.5 28t-32.5 23l-99 60l51 184h95l-43 -143l69 -41q78 -45 78 -115q0 -60 -46 -97.5t-120 -37.5q-88 0 -147 63z" />
<glyph unicode="&#xb9;" horiz-adv-x="528" d="M29 1249v115l299 84l18 -18l-4 -492l4 -276h-145l4 258v366l-164 -43z" />
<glyph unicode="&#xba;" horiz-adv-x="694" d="M63 995q0 161 76 247.5t217 86.5q135 0 205 -81.5t70 -235.5q0 -160 -75 -247t-216 -87q-134 0 -205.5 81.5t-71.5 235.5zM203 1010q0 -118 35.5 -174t109.5 -56q148 0 148 217q0 228 -148 228q-145 0 -145 -215z" />
<glyph unicode="&#xbb;" horiz-adv-x="800" d="M45 160l254 305l-254 305l2 18l80 46l297 -351v-32l-297 -357l-80 45zM385 160l254 305l-254 305l2 18l80 46l297 -351v-32l-297 -357l-80 45z" />
<glyph unicode="&#xbc;" horiz-adv-x="1437" d="M29 1126v115l299 84l18 -18l-4 -492l4 -276h-145l4 258v366l-164 -43zM100 -121l965 1510l72 -41l12 -29l-967 -1505l-71 41zM772 215v90l336 471h133l-2 -463h119l10 -12l-8 -100l-119 6l8 -195l-8 -12l-115 -6l-8 8l2 205h-233l-105 -6zM899 313h223v301h-10z" />
<glyph unicode="&#xbd;" horiz-adv-x="1466" d="M29 1126v115l299 84l18 -18l-4 -492l4 -276h-145l4 258v366l-164 -43zM100 -121l965 1510l72 -41l12 -29l-967 -1505l-71 41zM831 4v86l201 234q59 73 84.5 106t47.5 74t22 71q0 39 -27.5 65t-77.5 26q-51 0 -104 -28t-96 -77h-19l-22 109q131 112 274 112 q95 0 157 -47.5t62 -128.5q0 -59 -40.5 -129t-133.5 -186l-137 -174l4 -4h252l131 6l6 -13l-16 -112l-164 6h-340l-55 -2z" />
<glyph unicode="&#xbe;" horiz-adv-x="1513" d="M61 1243q106 80 230 80q100 0 160.5 -48.5t60.5 -127.5q0 -55 -32 -106t-95 -80v-9q76 -20 116 -67.5t40 -118.5q0 -106 -89.5 -171t-234.5 -65q-75 0 -139 15l-10 102l12 10q73 -18 139 -18q85 0 132.5 34.5t47.5 94.5q0 55 -36.5 85.5t-106.5 31.5h-88l-8 10l2 96h61 q52 0 98 38t46 91q0 42 -28.5 66t-78.5 24q-71 0 -162 -63h-14zM176 -121l965 1510l71 -41l13 -29l-967 -1505l-72 41zM848 215v90l336 471h133l-2 -463h119l10 -12l-8 -100l-119 6l8 -195l-8 -12l-115 -6l-8 8l2 205h-233l-105 -6zM975 313h223v301h-10z" />
<glyph unicode="&#xbf;" horiz-adv-x="677" d="M0 -84q0 80 44 151t128 123l170 111l4 8l-12 197l115 14l14 -14l16 -236l-10 -20l-197 -117q-125 -73 -125 -192q0 -206 404 -230l12 -16l-31 -90l-20 -11q-246 15 -379 98.5t-133 223.5zM295 860q0 44 26 71t70 27q43 0 66.5 -25t23.5 -69q0 -43 -26 -69.5t-70 -26.5 q-41 0 -65.5 24.5t-24.5 67.5z" />
<glyph unicode="&#xc0;" horiz-adv-x="1183" d="M29 0l483 1313h190l439 -1313h-170l-29 131l-74 225l-297 6l-266 -6l-80 -217l-32 -139h-164zM356 496l230 -4l235 4l-213 647h-14zM369 1669l41 96l18 4q178 -105 393 -210l-28 -74l-21 -8q-223 94 -399 176z" />
<glyph unicode="&#xc1;" horiz-adv-x="1183" d="M29 0l483 1313h190l439 -1313h-170l-29 131l-74 225l-297 6l-266 -6l-80 -217l-32 -139h-164zM356 496l230 -4l235 4l-213 647h-14zM422 1556q205 100 393 211l19 -4l40 -96l-4 -16q-176 -82 -399 -176l-20 8z" />
<glyph unicode="&#xc2;" horiz-adv-x="1183" d="M29 0l483 1313h190l439 -1313h-170l-29 131l-74 225l-297 6l-266 -6l-80 -217l-32 -139h-164zM332 1571q136 93 237 186h47q92 -82 240 -186l-33 -70h-18q-105 64 -211 135q-94 -63 -209 -135h-20zM356 496l230 -4l235 4l-213 647h-14z" />
<glyph unicode="&#xc3;" horiz-adv-x="1183" d="M29 0l483 1313h190l439 -1313h-170l-29 131l-74 225l-297 6l-266 -6l-80 -217l-32 -139h-164zM270 1556v15l125 141l21 6q43 -5 167 -39t150 -34q9 0 18.5 4.5t21.5 14.5t21.5 19.5t26.5 27t29 28.5h16l49 -51v-17l-124 -141l-21 -6q-43 4 -167 39.5t-150 35.5 q-9 0 -18.5 -4.5t-21 -15t-21 -20t-26.5 -27.5t-28 -29h-19zM356 496l230 -4l235 4l-213 647h-14z" />
<glyph unicode="&#xc4;" horiz-adv-x="1183" d="M29 0l483 1313h190l439 -1313h-170l-29 131l-74 225l-297 6l-266 -6l-80 -217l-32 -139h-164zM346 1614q0 42 25 67t67 25q40 0 63 -23t23 -63q0 -43 -25 -69.5t-67 -26.5q-41 0 -63.5 24t-22.5 66zM356 496l230 -4l235 4l-213 647h-14zM668 1614q0 42 25 67t67 25 q40 0 63 -23t23 -63q0 -43 -25 -69.5t-67 -26.5q-41 0 -63.5 24t-22.5 66z" />
<glyph unicode="&#xc5;" horiz-adv-x="1183" d="M29 0l483 1313h190l439 -1313h-170l-29 131l-74 225l-297 6l-266 -6l-80 -217l-32 -139h-164zM356 496l230 -4l235 4l-213 647h-14zM420 1630q0 77 46.5 123.5t127.5 46.5t125.5 -46.5t44.5 -119.5q0 -81 -50 -126.5t-126 -45.5q-74 0 -121 44.5t-47 123.5zM498 1632 q0 -44 25.5 -68t68.5 -24q41 0 66.5 22.5t25.5 65.5t-24 67.5t-70 24.5q-44 0 -68 -23t-24 -65z" />
<glyph unicode="&#xc6;" horiz-adv-x="1652" d="M-33 0l692 1313h764l13 -17l-17 -127l-332 9h-198l72 -486l440 92l14 -12l8 -119l-444 -88l63 -432h232l336 10l12 -16l-14 -127h-713l-10 131l-60 399l-487 -110l-150 -281l-51 -139h-170zM420 575l385 84l-72 484h-12z" />
<glyph unicode="&#xc7;" horiz-adv-x="1064" d="M78 645q0 326 151.5 502t429.5 176q207 0 359 -98l-33 -150l-18 -4q-137 115 -316 115q-195 0 -299 -134t-104 -393q0 -260 104 -397t295 -137q188 0 342 125l21 -10l-15 -156q-157 -88 -319 -96l-27 -92l70 -41q78 -45 78 -115q0 -60 -46 -97.5t-120 -37.5 q-89 0 -148 63l15 82l10 2q29 -32 55 -47.5t62 -15.5q28 0 45.5 14.5t17.5 40.5q0 17 -10.5 28t-32.5 23l-98 60l37 133q-242 15 -374 185.5t-132 471.5z" />
<glyph unicode="&#xc8;" horiz-adv-x="987" d="M190 0l11 395l-11 918h740l10 -17l-14 -127l-310 7l-260 -5l-4 -430l246 -4l217 6l10 -14l-12 -127l-229 4l-234 -2l-2 -194l6 -273l262 -2l314 8l10 -16l-12 -127h-738zM336 1669l41 96l18 4q178 -105 393 -210l-28 -74l-21 -8q-223 94 -399 176z" />
<glyph unicode="&#xc9;" horiz-adv-x="987" d="M190 0l11 395l-11 918h740l10 -17l-14 -127l-310 7l-260 -5l-4 -430l246 -4l217 6l10 -14l-12 -127l-229 4l-234 -2l-2 -194l6 -273l262 -2l314 8l10 -16l-12 -127h-738zM391 1556q205 100 393 211l19 -4l41 -96l-4 -16q-167 -78 -400 -176l-20 8z" />
<glyph unicode="&#xca;" horiz-adv-x="987" d="M190 0l11 395l-11 918h740l10 -17l-14 -127l-310 7l-260 -5l-4 -430l246 -4l217 6l10 -14l-12 -127l-229 4l-234 -2l-2 -194l6 -273l262 -2l314 8l10 -16l-12 -127h-738zM299 1571q139 96 238 186h47q96 -85 239 -186l-32 -70h-19q-105 64 -211 135q-94 -63 -209 -135 h-20z" />
<glyph unicode="&#xcb;" horiz-adv-x="987" d="M190 0l11 395l-11 918h740l10 -17l-14 -127l-310 7l-260 -5l-4 -430l246 -4l217 6l10 -14l-12 -127l-229 4l-234 -2l-2 -194l6 -273l262 -2l314 8l10 -16l-12 -127h-738zM313 1614q0 42 25.5 67t67.5 25q40 0 63 -23t23 -63q0 -43 -25.5 -69.5t-67.5 -26.5 q-41 0 -63.5 24t-22.5 66zM635 1614q0 42 25 67t67 25q40 0 63 -23t23 -63q0 -43 -25 -69.5t-67 -26.5q-41 0 -63.5 24t-22.5 66z" />
<glyph unicode="&#xcc;" horiz-adv-x="548" d="M49 1669l41 96l19 4q178 -105 393 -210l-29 -74l-20 -8q-233 98 -400 176zM190 0l11 395l-11 918h168l-10 -903l8 -410h-166z" />
<glyph unicode="&#xcd;" horiz-adv-x="548" d="M102 1556q211 103 394 211l18 -4l41 -96l-4 -16q-176 -82 -399 -176l-21 8zM190 0l11 395l-11 918h168l-10 -903l8 -410h-166z" />
<glyph unicode="&#xce;" horiz-adv-x="548" d="M12 1571q139 96 238 186h47q92 -82 240 -186l-33 -70h-19q-105 64 -211 135q-108 -72 -208 -135h-21zM190 0l11 395l-11 918h168l-10 -903l8 -410h-166z" />
<glyph unicode="&#xd0;" horiz-adv-x="1368" d="M25 621l6 102h211l-9 590h3l473 8q281 0 431 -160t150 -459q0 -345 -162.5 -529.5t-465.5 -184.5q-200 0 -426 12h-3l13 395l-2 211h-211zM393 410l4 -273q147 -12 291 -12q210 0 322 136t112 407q0 516 -424 516q-135 0 -299 -8l-4 -453h297l8 -14l-6 -103h-299z" />
<glyph unicode="&#xd1;" horiz-adv-x="1398" d="M190 0l11 389l-6 924h172l677 -1051h13l-2 1043l155 12l-12 -932l4 -385h-172l-676 1051h-14l-2 -619l8 -432h-156zM371 1556v15l125 141l20 6q43 -5 167.5 -39t150.5 -34q9 0 18.5 4.5t21 14.5t21 19.5l26.5 26.5l29 29h17l49 -51v-17l-125 -141l-21 -6q-43 4 -167 39.5 t-150 35.5q-9 0 -18.5 -4.5t-21 -15t-21 -20t-26.5 -27.5t-28 -29h-18z" />
<glyph unicode="&#xd2;" horiz-adv-x="1300" d="M78 645q0 328 153 504t437 176q269 0 413 -166.5t144 -476.5q0 -335 -153.5 -516.5t-436.5 -181.5q-267 0 -412 172t-145 489zM246 666q0 -276 99.5 -410.5t299.5 -134.5q410 0 410 532q0 272 -100 404.5t-302 132.5q-407 0 -407 -524zM426 1669l41 96l18 4 q173 -102 394 -210l-29 -74l-21 -8q-223 94 -399 176z" />
<glyph unicode="&#xd3;" horiz-adv-x="1300" d="M78 645q0 328 153 504t437 176q269 0 413 -166.5t144 -476.5q0 -335 -153.5 -516.5t-436.5 -181.5q-267 0 -412 172t-145 489zM246 666q0 -276 99.5 -410.5t299.5 -134.5q410 0 410 532q0 272 -100 404.5t-302 132.5q-407 0 -407 -524zM481 1556q205 100 393 211l19 -4 l41 -96l-4 -16q-167 -78 -400 -176l-20 8z" />
<glyph unicode="&#xd4;" horiz-adv-x="1300" d="M78 645q0 328 153 504t437 176q269 0 413 -166.5t144 -476.5q0 -335 -153.5 -516.5t-436.5 -181.5q-267 0 -412 172t-145 489zM246 666q0 -276 99.5 -410.5t299.5 -134.5q410 0 410 532q0 272 -100 404.5t-302 132.5q-407 0 -407 -524zM389 1571q139 96 238 186h47 q96 -85 239 -186l-32 -70h-19q-105 64 -211 135q-94 -63 -209 -135h-20z" />
<glyph unicode="&#xd5;" horiz-adv-x="1300" d="M78 645q0 328 153 504t437 176q269 0 413 -166.5t144 -476.5q0 -335 -153.5 -516.5t-436.5 -181.5q-267 0 -412 172t-145 489zM246 666q0 -276 99.5 -410.5t299.5 -134.5q410 0 410 532q0 272 -100 404.5t-302 132.5q-407 0 -407 -524zM330 1556v15l125 141l20 6 q43 -5 167.5 -39t150.5 -34q9 0 18.5 4.5t21 14.5t21 19.5l26.5 26.5l29 29h17l49 -51v-17l-125 -141l-21 -6q-43 4 -167 39.5t-150 35.5q-9 0 -18.5 -4.5t-21 -15t-21 -20t-26.5 -27.5t-28 -29h-18z" />
<glyph unicode="&#xd7;" d="M158 272v17l254 254l-254 252v20l75 66l259 -256l256 256l77 -66v-20l-252 -252l252 -252v-19l-77 -67l-256 256l-259 -256z" />
<glyph unicode="&#xd8;" horiz-adv-x="1300" d="M78 645q0 328 153 504t437 176q114 0 209 -31l88 189l98 -37l10 -21l-86 -184q238 -156 238 -559q0 -335 -153.5 -516.5t-436.5 -181.5q-128 0 -219 36l-109 -229l-100 35l-8 16l110 236q-231 161 -231 567zM246 666q0 -313 129 -445l440 942q-71 27 -162 27 q-407 0 -407 -524zM475 152q76 -31 170 -31q410 0 410 532q0 316 -135 445z" />
<glyph unicode="&#xd9;" horiz-adv-x="1282" d="M152 479l2 178l-2 656h161l-8 -813q-1 -184 83.5 -277.5t250.5 -93.5q165 0 250.5 88t85.5 262l-8 834h163l-4 -668l-2 -147q5 -243 -125.5 -377.5t-371.5 -134.5q-233 0 -356.5 128t-118.5 365zM420 1669l41 96l18 4q178 -105 393 -210l-28 -74l-21 -8q-223 94 -399 176 z" />
<glyph unicode="&#xda;" horiz-adv-x="1282" d="M152 479l2 178l-2 656h161l-8 -813q-1 -184 83.5 -277.5t250.5 -93.5q165 0 250.5 88t85.5 262l-8 834h163l-4 -668l-2 -147q5 -243 -125.5 -377.5t-371.5 -134.5q-233 0 -356.5 128t-118.5 365zM475 1556q205 100 393 211l19 -4l41 -96l-4 -16q-167 -78 -400 -176l-20 8 z" />
<glyph unicode="&#xdb;" horiz-adv-x="1282" d="M152 479l2 178l-2 656h161l-8 -813q-1 -184 83.5 -277.5t250.5 -93.5q165 0 250.5 88t85.5 262l-8 834h163l-4 -668l-2 -147q5 -243 -125.5 -377.5t-371.5 -134.5q-233 0 -356.5 128t-118.5 365zM383 1571q139 96 238 186h47q96 -85 239 -186l-33 -70h-18 q-105 64 -211 135q-94 -63 -209 -135h-20z" />
<glyph unicode="&#xdc;" horiz-adv-x="1282" d="M152 479l2 178l-2 656h161l-8 -813q-1 -184 83.5 -277.5t250.5 -93.5q165 0 250.5 88t85.5 262l-8 834h163l-4 -668l-2 -147q5 -243 -125.5 -377.5t-371.5 -134.5q-233 0 -356.5 128t-118.5 365zM397 1614q0 42 25 67t67 25q40 0 63 -23t23 -63q0 -43 -25 -69.5 t-67 -26.5q-41 0 -63.5 24t-22.5 66zM719 1614q0 42 25 67t67 25q40 0 63 -23t23 -63q0 -43 -25 -69.5t-67 -26.5q-41 0 -63.5 24t-22.5 66z" />
<glyph unicode="&#xde;" horiz-adv-x="1075" d="M193 0l6 395l-6 918h165l-2 -228l240 2q194 0 298.5 -99.5t104.5 -287.5q0 -222 -127.5 -342t-363.5 -120l-156 -2l4 -236h-163zM350 373l217 -4q262 48 262 319q0 254 -270 266l-205 -6l-4 -538v-37z" />
<glyph unicode="&#xdf;" horiz-adv-x="1153" d="M72 840l10 96h137v98q0 194 109 301t299 107q157 0 242 -71.5t85 -192.5q0 -62 -24 -113t-58 -85.5t-67.5 -66.5t-57.5 -71.5t-24 -83.5t22.5 -81t59 -64t80.5 -52.5t88 -53t80.5 -59.5t59 -78t22.5 -102q0 -119 -90.5 -201.5t-245.5 -82.5q-146 0 -271 67l23 139l16 13 q115 -103 244 -103q80 0 128 41t48 101q0 38 -23 71t-59.5 58.5t-80.5 51t-88 55t-80.5 63t-59.5 82.5t-23 108q0 61 25.5 109.5t61.5 81t72 64t61.5 75t25.5 96.5q0 80 -53 123t-145 43q-117 0 -182 -69.5t-66 -202.5l-8 -645l10 -406h-162l12 389l-4 438h-141z" />
<glyph unicode="&#xe0;" horiz-adv-x="946" d="M86 242q0 91 48 144t142 75l332 78l2 133q0 81 -42 123.5t-119 42.5q-135 0 -289 -136l-17 9l-22 116q174 127 352 127q132 0 209.5 -65t77.5 -180q0 -36 -13.5 -253t-13.5 -253q0 -44 14.5 -62t51.5 -18q30 0 67 12l17 -14l-15 -92q-62 -35 -116 -41q-65 6 -102.5 45 t-41.5 106h-12q-109 -112 -219 -153q-137 0 -214 68.5t-77 187.5zM231 264q0 -67 38 -105t100 -38q111 0 231 145l6 168l-297 -72q-41 -11 -59.5 -33t-18.5 -65zM248 1339l61 86l19 2q139 -137 336 -297l-46 -65l-18 -2q-136 95 -348 260z" />
<glyph unicode="&#xe1;" horiz-adv-x="946" d="M86 242q0 91 48 144t142 75l332 78l2 133q0 81 -42 123.5t-119 42.5q-135 0 -289 -136l-17 9l-22 116q174 127 352 127q132 0 209.5 -65t77.5 -180q0 -36 -13.5 -253t-13.5 -253q0 -44 14.5 -62t51.5 -18q30 0 67 12l17 -14l-15 -92q-62 -35 -116 -41q-65 6 -102.5 45 t-41.5 106h-12q-109 -112 -219 -153q-137 0 -214 68.5t-77 187.5zM231 264q0 -67 38 -105t100 -38q111 0 231 145l6 168l-297 -72q-41 -11 -59.5 -33t-18.5 -65zM305 1130q197 160 336 297l18 -2l62 -86l-4 -16q-212 -165 -348 -260l-19 2z" />
<glyph unicode="&#xe2;" horiz-adv-x="946" d="M86 242q0 91 48 144t142 75l332 78l2 133q0 81 -42 123.5t-119 42.5q-135 0 -289 -136l-17 9l-22 116q174 127 352 127q132 0 209.5 -65t77.5 -180q0 -36 -13.5 -253t-13.5 -253q0 -44 14.5 -62t51.5 -18q30 0 67 12l17 -14l-15 -92q-62 -35 -116 -41q-65 6 -102.5 45 t-41.5 106h-12q-109 -112 -219 -153q-137 0 -214 68.5t-77 187.5zM184 1137q118 118 250 274h49q128 -157 248 -274l-45 -66h-18q-135 128 -209 213q-69 -77 -209 -213h-21zM231 264q0 -67 38 -105t100 -38q111 0 231 145l6 168l-297 -72q-41 -11 -59.5 -33t-18.5 -65z" />
<glyph unicode="&#xe3;" horiz-adv-x="946" d="M86 242q0 91 48 144t142 75l332 78l2 133q0 81 -42 123.5t-119 42.5q-135 0 -289 -136l-17 9l-22 116q174 127 352 127q132 0 209.5 -65t77.5 -180q0 -36 -13.5 -253t-13.5 -253q0 -44 14.5 -62t51.5 -18q30 0 67 12l17 -14l-15 -92q-62 -35 -116 -41q-65 6 -102.5 45 t-41.5 106h-12q-109 -112 -219 -153q-137 0 -214 68.5t-77 187.5zM133 1184v14l125 141l21 7q43 -5 167 -39.5t150 -34.5q9 0 18.5 4.5t21.5 14.5t21.5 19.5t26.5 27t29 28.5h16l49 -51v-17l-125 -141l-20 -6q-43 4 -167.5 40t-150.5 36q-11 0 -24.5 -9t-24 -19.5t-31.5 -33 t-34 -35.5h-19zM231 264q0 -67 38 -105t100 -38q111 0 231 145l6 168l-297 -72q-41 -11 -59.5 -33t-18.5 -65z" />
<glyph unicode="&#xe4;" horiz-adv-x="946" d="M86 242q0 91 48 144t142 75l332 78l2 133q0 81 -42 123.5t-119 42.5q-135 0 -289 -136l-17 9l-22 116q174 127 352 127q132 0 209.5 -65t77.5 -180q0 -36 -13.5 -253t-13.5 -253q0 -44 14.5 -62t51.5 -18q30 0 67 12l17 -14l-15 -92q-62 -35 -116 -41q-65 6 -102.5 45 t-41.5 106h-12q-109 -112 -219 -153q-137 0 -214 68.5t-77 187.5zM209 1241q0 42 25 67t67 25q40 0 63 -23t23 -63q0 -43 -25 -69.5t-67 -26.5q-41 0 -63.5 24t-22.5 66zM231 264q0 -67 38 -105t100 -38q111 0 231 145l6 168l-297 -72q-41 -11 -59.5 -33t-18.5 -65z M530 1241q0 41 25 66.5t68 25.5q40 0 63 -23t23 -63q0 -43 -25.5 -69.5t-67.5 -26.5q-41 0 -63.5 24t-22.5 66z" />
<glyph unicode="&#xe5;" horiz-adv-x="946" d="M86 242q0 91 48 144t142 75l332 78l2 133q0 81 -42 123.5t-119 42.5q-135 0 -289 -136l-17 9l-22 116q174 127 352 127q132 0 209.5 -65t77.5 -180q0 -36 -13.5 -253t-13.5 -253q0 -44 14.5 -62t51.5 -18q30 0 67 12l17 -14l-15 -92q-62 -35 -116 -41q-65 6 -102.5 45 t-41.5 106h-12q-109 -112 -219 -153q-137 0 -214 68.5t-77 187.5zM231 264q0 -67 38 -105t100 -38q111 0 231 145l6 168l-297 -72q-41 -11 -59.5 -33t-18.5 -65zM283 1257q0 77 46.5 123.5t127.5 46.5t125.5 -46t44.5 -119q0 -81 -50 -126.5t-126 -45.5q-75 0 -121.5 44 t-46.5 123zM360 1260q0 -44 26 -68.5t69 -24.5q41 0 66.5 22.5t25.5 65.5t-24 68t-70 25q-44 0 -68.5 -23.5t-24.5 -64.5z" />
<glyph unicode="&#xe6;" horiz-adv-x="1388" d="M80 244q0 92 48.5 150t141.5 73l328 55v150q0 81 -41 123.5t-117 42.5q-123 0 -284 -136l-17 9l-24 116q171 127 344 127q96 0 158 -39.5t88 -107.5q53 71 130.5 108t168.5 37q151 0 240 -99t83 -286l-18 -22l-580 -99q8 -166 78 -253t199 -87q136 0 262 95l16 -8 l-18 -134q-128 -75 -273 -75q-232 0 -334 202q-113 -143 -278 -200q-139 0 -220 68.5t-81 189.5zM225 260q0 -66 40.5 -101.5t105.5 -35.5q58 0 110.5 33t132.5 120q-14 99 -16 148l-268 -53q-105 -19 -105 -111zM729 545l451 86q-6 100 -59.5 155.5t-139.5 55.5 q-106 0 -179 -83.5t-73 -201.5v-12z" />
<glyph unicode="&#xe7;" horiz-adv-x="788" d="M86 463q0 227 111 359t305 132q139 0 252 -55l-29 -141l-18 -6q-108 69 -211 69q-120 0 -188 -92.5t-68 -257.5t70 -260.5t194 -95.5q119 0 231 69l17 -10l-17 -137q-116 -48 -223 -53l-27 -88l70 -41q78 -45 78 -115q0 -60 -46 -97.5t-120 -37.5q-89 0 -148 63l15 82 l10 2q29 -32 55 -47.5t62 -15.5q28 0 45.5 14.5t17.5 40.5q0 17 -10.5 28t-32.5 23l-98 60l37 133q-157 23 -245.5 148t-88.5 327z" />
<glyph unicode="&#xe8;" horiz-adv-x="925" d="M86 463q0 226 119 357.5t319 131.5q154 0 240 -93t86 -259q0 -56 -6 -94l-33 -27l-571 -2v-6q0 -169 71 -262.5t209 -93.5q141 0 275 92l18 -10l-18 -138q-143 -75 -285 -75q-200 0 -312 128t-112 351zM250 586l448 12l4 25q0 107 -51 161t-139 54q-104 0 -172 -65.5 t-90 -186.5zM293 1339l61 86l19 2q139 -137 336 -297l-45 -65l-19 -2q-136 95 -348 260z" />
<glyph unicode="&#xe9;" horiz-adv-x="925" d="M86 463q0 226 119 357.5t319 131.5q154 0 240 -93t86 -259q0 -56 -6 -94l-33 -27l-571 -2v-6q0 -169 71 -262.5t209 -93.5q141 0 275 92l18 -10l-18 -138q-143 -75 -285 -75q-200 0 -312 128t-112 351zM250 586l448 12l4 25q0 107 -51 161t-139 54q-104 0 -172 -65.5 t-90 -186.5zM352 1130q197 160 336 297l19 -2l61 -86l-4 -16q-212 -165 -348 -260l-19 2z" />
<glyph unicode="&#xea;" horiz-adv-x="925" d="M86 463q0 226 119 357.5t319 131.5q154 0 240 -93t86 -259q0 -56 -6 -94l-33 -27l-571 -2v-6q0 -169 71 -262.5t209 -93.5q141 0 275 92l18 -10l-18 -138q-143 -75 -285 -75q-200 0 -312 128t-112 351zM229 1137q118 118 250 274h49q128 -157 248 -274l-45 -66h-18 q-135 128 -209 213q-69 -77 -209 -213h-21zM250 586l448 12l4 25q0 107 -51 161t-139 54q-104 0 -172 -65.5t-90 -186.5z" />
<glyph unicode="&#xeb;" horiz-adv-x="925" d="M86 463q0 226 119 357.5t319 131.5q154 0 240 -93t86 -259q0 -56 -6 -94l-33 -27l-571 -2v-6q0 -169 71 -262.5t209 -93.5q141 0 275 92l18 -10l-18 -138q-143 -75 -285 -75q-200 0 -312 128t-112 351zM250 586l448 12l4 25q0 107 -51 161t-139 54q-104 0 -172 -65.5 t-90 -186.5zM254 1241q0 42 25 67t67 25q40 0 63 -23t23 -63q0 -43 -25 -69.5t-67 -26.5q-41 0 -63.5 24t-22.5 66zM575 1241q0 41 25.5 66.5t67.5 25.5q40 0 63 -23t23 -63q0 -43 -25 -69.5t-67 -26.5q-41 0 -64 24t-23 66z" />
<glyph unicode="&#xec;" horiz-adv-x="487" d="M37 1339l61 86l19 2q139 -137 336 -297l-45 -65l-19 -2q-136 95 -348 260zM162 0l10 397l-8 531l162 14l-13 -530l11 -412h-162z" />
<glyph unicode="&#xed;" horiz-adv-x="487" d="M94 1130q197 160 336 297l19 -2l61 -86l-4 -16q-212 -165 -348 -260l-19 2zM162 0l10 397l-8 531l162 14l-13 -530l11 -412h-162z" />
<glyph unicode="&#xee;" horiz-adv-x="487" d="M-27 1137q118 118 250 274h49q128 -157 248 -274l-45 -66h-18q-135 128 -209 213q-69 -77 -209 -213h-21zM162 0l10 397l-8 531l162 14l-13 -530l11 -412h-162z" />
<glyph unicode="&#xf0;" horiz-adv-x="1001" d="M88 459q0 227 109.5 354t306.5 127q92 0 174 -31q-71 133 -191 238l-249 -125l-17 6l-33 78l213 106q-112 78 -260 140v20l92 74h13q168 -74 284 -168l238 121l14 -6l35 -78l-209 -105q301 -287 301 -706q0 -248 -108 -384t-307 -136q-189 0 -297.5 125t-108.5 350z M229 459q0 -179 72 -272t203 -93q264 0 264 400q0 129 -27 243q-100 92 -229 92q-137 0 -210 -95t-73 -275z" />
<glyph unicode="&#xf1;" horiz-adv-x="1054" d="M162 0l10 397l-8 531l153 14v-137h13q128 113 260 145q154 0 234.5 -71.5t78.5 -204.5l-4 -266l8 -408h-166l13 637q2 83 -40 130.5t-120 47.5q-137 0 -279 -145v-258l9 -412h-162zM233 1184v14l125 141l21 7q43 -5 167 -39.5t150 -34.5q9 0 18.5 4.5t21.5 14.5 t21.5 19.5t26.5 27t29 28.5h16l50 -51v-17l-125 -141l-21 -6q-43 4 -167 40t-150 36q-9 0 -18.5 -4.5t-21 -15t-21.5 -20.5t-26 -27.5t-28 -29.5h-18z" />
<glyph unicode="&#xf2;" horiz-adv-x="1005" d="M86 457q0 236 112 366.5t314 130.5q192 0 297.5 -123.5t105.5 -349.5q0 -236 -111.5 -366.5t-314.5 -130.5q-192 0 -297.5 123.5t-105.5 349.5zM240 494q0 -196 66.5 -295t193.5 -99q130 0 197 86.5t67 257.5q0 194 -66.5 295t-193.5 101q-129 0 -196.5 -88.5 t-67.5 -257.5zM295 1339l61 86l19 2q139 -137 336 -297l-45 -65l-19 -2q-136 95 -348 260z" />
<glyph unicode="&#xf3;" horiz-adv-x="1005" d="M86 457q0 236 112 366.5t314 130.5q192 0 297.5 -123.5t105.5 -349.5q0 -236 -111.5 -366.5t-314.5 -130.5q-192 0 -297.5 123.5t-105.5 349.5zM240 494q0 -196 66.5 -295t193.5 -99q130 0 197 86.5t67 257.5q0 194 -66.5 295t-193.5 101q-129 0 -196.5 -88.5 t-67.5 -257.5zM352 1130q197 160 336 297l19 -2l61 -86l-4 -16q-212 -165 -348 -260l-19 2z" />
<glyph unicode="&#xf4;" horiz-adv-x="1005" d="M86 457q0 236 112 366.5t314 130.5q192 0 297.5 -123.5t105.5 -349.5q0 -236 -111.5 -366.5t-314.5 -130.5q-192 0 -297.5 123.5t-105.5 349.5zM231 1137q118 118 250 274h49q128 -157 248 -274l-45 -66h-18q-135 128 -209 213q-69 -77 -209 -213h-21zM240 494 q0 -196 66.5 -295t193.5 -99q130 0 197 86.5t67 257.5q0 194 -66.5 295t-193.5 101q-129 0 -196.5 -88.5t-67.5 -257.5z" />
<glyph unicode="&#xf5;" horiz-adv-x="1005" d="M86 457q0 236 112 366.5t314 130.5q192 0 297.5 -123.5t105.5 -349.5q0 -236 -111.5 -366.5t-314.5 -130.5q-192 0 -297.5 123.5t-105.5 349.5zM180 1184v14l125 141l21 7q43 -5 167 -39.5t150 -34.5q9 0 18.5 4.5t21.5 14.5t21.5 19.5t26.5 27t29 28.5h16l49 -51v-17 l-125 -141l-20 -6q-43 4 -167.5 40t-150.5 36q-11 0 -24.5 -9t-24 -19.5t-31.5 -33t-34 -35.5h-19zM240 494q0 -196 66.5 -295t193.5 -99q130 0 197 86.5t67 257.5q0 194 -66.5 295t-193.5 101q-129 0 -196.5 -88.5t-67.5 -257.5z" />
<glyph unicode="&#xf7;" d="M84 498l10 102h834l14 -12l-10 -103h-836zM442 186q0 41 25 65.5t68 24.5q39 0 61 -22t22 -61q0 -43 -24.5 -69t-65.5 -26t-63.5 23.5t-22.5 64.5zM442 903q0 41 25 66.5t68 25.5q39 0 61 -23t22 -63q0 -43 -24.5 -68.5t-65.5 -25.5t-63.5 24t-22.5 64z" />
<glyph unicode="&#xf8;" horiz-adv-x="1005" d="M86 457q0 236 112 366.5t314 130.5q90 0 158 -26l100 200l84 -38l10 -19l-98 -197q149 -124 149 -393q0 -236 -111.5 -366.5t-314.5 -130.5q-85 0 -155 24l-123 -246l-90 41l-6 17l123 243q-152 121 -152 394zM240 494q0 -193 65 -293l307 614q-48 25 -108 25 q-129 0 -196.5 -88.5t-67.5 -257.5zM391 123q51 -23 109 -23q130 0 197 86.5t67 257.5q0 192 -66 293z" />
<glyph unicode="&#xf9;" horiz-adv-x="1046" d="M150 928l163 14l-10 -639q-2 -84 38.5 -131t117.5 -47q125 0 256 125v678l153 14l-10 -741q0 -43 14 -60.5t46 -17.5q31 0 71 12l17 -14l-17 -92q-58 -35 -117 -41q-62 6 -97.5 43t-43.5 100h-16q-123 -112 -252 -143q-153 0 -232 71.5t-77 204.5l4 260zM315 1339l62 86 l18 2q139 -137 336 -297l-45 -65l-18 -2q-146 103 -349 260z" />
<glyph unicode="&#xfa;" horiz-adv-x="1046" d="M150 928l163 14l-10 -639q-2 -84 38.5 -131t117.5 -47q125 0 256 125v678l153 14l-10 -741q0 -43 14 -60.5t46 -17.5q31 0 71 12l17 -14l-17 -92q-58 -35 -117 -41q-62 6 -97.5 43t-43.5 100h-16q-123 -112 -252 -143q-153 0 -232 71.5t-77 204.5l4 260zM373 1130 q197 160 336 297l18 -2l61 -86l-4 -16q-212 -165 -348 -260l-18 2z" />
<glyph unicode="&#xfb;" horiz-adv-x="1046" d="M150 928l163 14l-10 -639q-2 -84 38.5 -131t117.5 -47q125 0 256 125v678l153 14l-10 -741q0 -43 14 -60.5t46 -17.5q31 0 71 12l17 -14l-17 -92q-58 -35 -117 -41q-62 6 -97.5 43t-43.5 100h-16q-123 -112 -252 -143q-153 0 -232 71.5t-77 204.5l4 260zM252 1137 q118 118 250 274h49q128 -157 248 -274l-45 -66h-19q-135 128 -209 213q-69 -77 -209 -213h-20z" />
<glyph unicode="&#xfc;" horiz-adv-x="1046" d="M150 928l163 14l-10 -639q-2 -84 38.5 -131t117.5 -47q125 0 256 125v678l153 14l-10 -741q0 -43 14 -60.5t46 -17.5q31 0 71 12l17 -14l-17 -92q-58 -35 -117 -41q-62 6 -97.5 43t-43.5 100h-16q-123 -112 -252 -143q-153 0 -232 71.5t-77 204.5l4 260zM276 1241 q0 41 25 66.5t68 25.5q40 0 63 -23t23 -63q0 -43 -25.5 -69.5t-67.5 -26.5q-41 0 -63.5 24t-22.5 66zM598 1241q0 42 25 67t67 25q40 0 63 -23t23 -63q0 -43 -25 -69.5t-67 -26.5q-41 0 -63.5 24t-22.5 66z" />
<glyph unicode="&#xfe;" horiz-adv-x="1048" d="M172 -379l12 776l-12 1026l162 15l-6 -629h12q69 57 126.5 88t131.5 51q178 0 271.5 -117.5t93.5 -332.5q0 -246 -119.5 -380t-331.5 -134q-92 0 -184 39l4 -402h-160zM324 412l2 -242q101 -68 200 -68q133 0 209.5 96t73.5 281q-3 161 -61 248.5t-164 87.5 q-65 0 -126.5 -34.5t-131.5 -110.5z" />
<glyph unicode="&#xff;" horiz-adv-x="872" d="M-45 -289l6 21q155 29 247.5 90.5t156.5 177.5l-347 934l160 10l31 -121l223 -641h14l226 625l30 131h150l-332 -903q-67 -183 -176 -281t-295 -145h-18q-51 51 -76 102zM195 1241q0 42 25 67t67 25q40 0 63 -23t23 -63q0 -43 -25 -69.5t-67 -26.5q-41 0 -63.5 24 t-22.5 66zM516 1241q0 42 25 67t67 25q40 0 63 -23t23 -63q0 -43 -25 -69.5t-67 -26.5q-41 0 -63.5 24t-22.5 66z" />
<glyph unicode="&#x152;" horiz-adv-x="1742" d="M78 647q0 327 170 508.5t479 181.5q65 0 177.5 -12t168.5 -12h610l11 -17l-13 -127l-295 7h-276l-2 -435l233 -4l232 6l10 -14l-14 -127l-240 4l-225 -2v-205l2 -262l256 -2l321 8l13 -16l-15 -127h-608q-62 1 -189 -12t-188 -13q-294 0 -456 176.5t-162 495.5zM246 657 q0 -546 467 -546q115 0 192 20q28 9 39.5 25t11.5 47l-8 895q0 68 -28 76q-23 10 -83.5 18t-121.5 8q-232 0 -350.5 -137.5t-118.5 -405.5z" />
<glyph unicode="&#x153;" horiz-adv-x="1587" d="M76 459q0 234 111.5 363.5t308.5 129.5q242 0 335 -194q54 94 145 144t210 50q154 0 239.5 -93t85.5 -259q0 -56 -6 -94l-32 -27l-582 -2v-6q0 -170 73 -263t218 -93q140 0 274 92l17 -10l-17 -138q-143 -75 -285 -75q-242 0 -348 198q-101 -198 -348 -198 q-189 0 -294 124t-105 351zM238 494q0 -196 66.5 -295t193.5 -99q130 0 197 86.5t67 257.5q0 194 -66.5 295t-193.5 101q-129 0 -196.5 -88.5t-67.5 -257.5zM901 586l459 12l4 25q0 107 -52 161t-141 54q-107 0 -177 -65t-93 -187z" />
<glyph unicode="&#x178;" horiz-adv-x="1081" d="M31 1313h176l26 -74l287 -590h17l313 586l31 78h174l-457 -846l-2 -84l8 -383h-166l11 383l-3 90zM281 1614q0 42 25 67t67 25q40 0 63 -23t23 -63q0 -43 -25 -69.5t-67 -26.5q-41 0 -63.5 24t-22.5 66zM602 1614q0 42 25 67t67 25q40 0 63 -23t23 -63q0 -43 -25 -69.5 t-67 -26.5q-41 0 -63.5 24t-22.5 66z" />
<glyph unicode="&#x2c6;" horiz-adv-x="796" d="M125 1137q118 118 250 274h49q128 -157 248 -274l-45 -66h-19q-145 138 -209 213q-56 -64 -209 -213h-20z" />
<glyph unicode="&#x2dc;" horiz-adv-x="796" d="M76 1184v14l125 141l20 7q43 -5 167.5 -39.5t150.5 -34.5q9 0 18.5 4.5t21 14.5t21 19.5l26.5 26.5l29 29h17l49 -51v-17l-125 -141l-21 -6q-43 4 -167 40t-150 36q-9 0 -18.5 -4.5t-21 -15t-21.5 -20.5t-26 -27.5t-28 -29.5h-18z" />
<glyph unicode="&#x2000;" horiz-adv-x="900" />
<glyph unicode="&#x2001;" horiz-adv-x="1800" />
<glyph unicode="&#x2002;" horiz-adv-x="900" />
<glyph unicode="&#x2003;" horiz-adv-x="1800" />
<glyph unicode="&#x2004;" horiz-adv-x="600" />
<glyph unicode="&#x2005;" horiz-adv-x="450" />
<glyph unicode="&#x2006;" horiz-adv-x="300" />
<glyph unicode="&#x2007;" horiz-adv-x="300" />
<glyph unicode="&#x2008;" horiz-adv-x="225" />
<glyph unicode="&#x2009;" horiz-adv-x="360" />
<glyph unicode="&#x200a;" horiz-adv-x="100" />
<glyph unicode="&#x2010;" horiz-adv-x="628" d="M59 442v103l496 69l14 -14v-102l-493 -72z" />
<glyph unicode="&#x2011;" horiz-adv-x="628" d="M59 442v103l496 69l14 -14v-102l-493 -72z" />
<glyph unicode="&#x2012;" horiz-adv-x="628" d="M59 442v103l496 69l14 -14v-102l-493 -72z" />
<glyph unicode="&#x2013;" horiz-adv-x="978" d="M-31 479l11 103h1019l11 -15l-6 -100h-1022z" />
<glyph unicode="&#x2014;" horiz-adv-x="1902" d="M-33 479l10 103h1946l14 -15l-10 -100h-1947z" />
<glyph unicode="&#x2018;" horiz-adv-x="342" d="M68 1042q0 129 149 275l62 -43l2 -12q-86 -96 -86 -172q0 -80 79 -115v-14q-26 -26 -96 -72q-110 45 -110 153z" />
<glyph unicode="&#x2019;" horiz-adv-x="342" d="M68 944q86 92 86 172q0 81 -80 113v16q43 40 96 70q111 -42 111 -154q0 -127 -150 -274l-61 43z" />
<glyph unicode="&#x201a;" horiz-adv-x="468" d="M90 -168q113 87 113 180q0 55 -64 97v16q56 39 113 53q86 -55 86 -137q0 -133 -193 -274l-55 51v14z" />
<glyph unicode="&#x201c;" horiz-adv-x="591" d="M55 1044q0 128 150 275l61 -43l2 -14q-86 -92 -86 -172q0 -81 80 -113v-16q-43 -40 -96 -70q-111 42 -111 153zM324 1044q0 129 149 275l62 -43l2 -14q-86 -92 -86 -172q0 -81 79 -113v-16q-43 -40 -96 -70q-110 42 -110 153z" />
<glyph unicode="&#x201d;" horiz-adv-x="604" d="M61 944q86 92 86 172q0 81 -79 113v16q43 40 96 70q110 -42 110 -154q0 -128 -149 -274l-62 43zM324 944q88 94 88 172q0 80 -80 113v16q39 39 96 70q111 -42 111 -154q0 -124 -150 -274l-63 43z" />
<glyph unicode="&#x201e;" horiz-adv-x="739" d="M90 -168q113 87 113 180q0 55 -64 97v16q56 39 113 53q86 -55 86 -137q0 -133 -193 -274l-55 51v14zM356 -168q113 87 113 180q0 56 -63 97v16q62 41 114 53q86 -55 86 -137q0 -133 -194 -274l-56 51v14z" />
<glyph unicode="&#x2022;" horiz-adv-x="522" d="M154 487q0 50 29.5 79.5t80.5 29.5q46 0 73.5 -27.5t27.5 -74.5q0 -51 -30 -82t-79 -31q-47 0 -74.5 28.5t-27.5 77.5z" />
<glyph unicode="&#x2026;" horiz-adv-x="1191" d="M133 84q0 43 26 69.5t70 26.5q41 0 65.5 -24.5t24.5 -67.5q0 -44 -26 -71t-70 -27q-43 0 -66.5 25t-23.5 69zM494 84q0 43 26 69.5t70 26.5q43 0 66.5 -24.5t23.5 -67.5q0 -44 -25.5 -71t-68.5 -27q-44 0 -68 25t-24 69zM854 84q0 43 26 69.5t70 26.5q41 0 65.5 -24.5 t24.5 -67.5q0 -44 -26.5 -71t-69.5 -27t-66.5 25t-23.5 69z" />
<glyph unicode="&#x202f;" horiz-adv-x="360" />
<glyph unicode="&#x2039;" horiz-adv-x="468" d="M45 442v35l297 354l78 -45l2 -18l-254 -305l254 -305l-2 -21l-78 -45z" />
<glyph unicode="&#x203a;" horiz-adv-x="481" d="M55 160l254 305l-254 305l2 18l80 46l297 -351v-32l-297 -357l-80 45z" />
<glyph unicode="&#x205f;" horiz-adv-x="450" />
<glyph unicode="&#x20ac;" horiz-adv-x="993" d="M33 340l6 86h141q0 11 -1 34t-1 36q0 44 2 67h-139l-8 10l6 86h154q37 178 153.5 272.5t304.5 94.5q150 0 273 -74l-25 -108l-14 -4q-104 75 -242 75q-255 0 -311 -256h381l8 -10l-6 -86h-393l-3 -57q0 -43 3 -80h391l8 -10l-6 -86h-377q67 -228 295 -228q66 0 137 21.5 t127 60.5l18 -10l-12 -106q-135 -80 -276 -80q-180 0 -289 87.5t-145 254.5h-152z" />
<glyph unicode="&#x2122;" horiz-adv-x="1191" d="M55 1243l6 68h365l6 -8l-6 -66l-92 4h-43l-4 -260l4 -152h-90l4 144l-2 268h-43l-99 -4zM518 829l53 482h109l22 -72l93 -240h6l102 240l25 72h102l49 -482h-80l-12 146l-20 199h-9l-127 -293h-73l-119 293h-6l-25 -189l-12 -156h-78z" />
<glyph unicode="&#x25fc;" horiz-adv-x="942" d="M0 0v942h942v-942h-942z" />
</font>
</defs>
</svg>
